Skip to main content

Camper Van Beethoven Live at Kings Head Inn on 1987-02-16




History Of Utah, Joe Stalin's Cadillac, banter, I Don't See You At All, Hoe Yourself Down, q 'n' a, Take The Skinheads Bowling, Yanqui Go Home, Good Guys and Bad Guys, (We're A) Bad Trip, Abundance, Amerika banter, I Love Her All The Time, Turtlehead, banter, One Of These Days, Nine Of Discs, Harmony In My Head, Circles, Atkuda, Sad Lover's Waltz, SP37957 Medley, Ambiguity Song, Waka


Collection CamperVanBeethoven
Band/Artist Camper Van Beethoven
Venue Kings Head Inn
Location Norfolk, VA

Source SBD > D5 > CAS > ? > DAT
Lineage DAT > FLAC
Taped by ProductionTM
Transferred by ? / TAS aka morst

Notes

Location uncertain, corrections gladly noted!

SBD > ? > Cassette > DAT @48KHz
DAT> Protools 4.1.1 > Soundapp 2.7.3 (SRC to 44.1KHz) Audacity 1.2.3 > xACT 1.5b3 > flac (level 8 compression, tracking on 1/75 second points)

History Of Utah 1:48 (cut up, some edits made by morst with audacity)
Joe Stalin's Cadillac 2:35
banter 0:40
I Don't See You At All 2:20
Hoe Yourself Down 2:15
q&a 0:49
Take The Skinheads Bowling 2:29
Yanqui Go Home 2:57
Good Guys and Bad Guys 4:10
(We're A) Bad Trip 2:38
Abundance 2:02
Amerika banter 0:59
I Love Her All The Time 2:13
Turtlehead 1:20
banter 0:52
One Of These Days 3:55
Nine Of Discs 2:46
Harmony In My Head 3:10
Circles 3:17
Atkuda 2:52
Sad Lover's Waltz 4:21
SP37957 Medley 5:20
Ambiguity Song 3:06 (Acoustic) volume correction on a bump at 2:16
Waka (cut off) 0:56 (with nutty zeppelin teases)


shntool result
length expanded size cdr WAVE problems filename
1:48.00 19051244 --- -- ---xx cvb1987-02-16t01.flac
2:35.13 27372620 --- -- ---xx cvb1987-02-16t02.flac
0:40.29 7124252 --- -- ---xx cvb1987-02-16t03.flac
2:20.40 24790124 --- -- ---xx cvb1987-02-16t04.flac
2:15.65 23966924 --- -- ---xx cvb1987-02-16t05.flac
0:49.63 8791820 --- -- ---xx cvb1987-02-16t06.flac
2:29.11 26309516 --- -- ---xx cvb1987-02-16t07.flac
2:57.44 31326332 --- -- ---xx cvb1987-02-16t08.flac
4:10.67 44257628 --- -- ---xx cvb1987-02-16t09.flac
2:38.39 27962972 --- -- ---xx cvb1987-02-16t10.flac
2:02.12 21549068 --- -- ---xx cvb1987-02-16t11.flac
0:59.49 10522892 --- -- ---xx cvb1987-02-16t12.flac
2:13.05 23473004 --- -- ---xx cvb1987-02-16t13.flac
1:20.46 14220236 --- -- ---xx cvb1987-02-16t14.flac
0:52.42 9271628 --- -- ---xx cvb1987-02-16t15.flac
3:55.07 41470508 --- -- ---xx cvb1987-02-16t16.flac
2:46.10 29305964 --- -- ---xx cvb1987-02-16t17.flac
3:10.41 33612476 --- -- ---xx cvb1987-02-16t18.flac
3:17.59 34889612 --- -- ---xx cvb1987-02-16t19.flac
2:52.33 30418460 --- -- ---xx cvb1987-02-16t20.flac
4:21.00 46040444 --- -- ---xx cvb1987-02-16t21.flac
5:20.67 56605628 --- -- ---xx cvb1987-02-16t22.flac
3:06.27 32873948 --- -- ---xx cvb1987-02-16t23.flac
0:56.18 9920780 --- -- ---xx cvb1987-02-16t24.flac
60:00.37 635128080 B (totals for 24 files, 0.5472 overall compression ratio)

Reviews

Reviewer: njpg - - December 17, 2011
Subject: Slightly incomplete,
and the vocals & instruments are not well balanced, but a very clear recording of a great show nonetheless.
Reviewer: productionTM - - March 12, 2009
Subject: cvb 2/16/87
I taped this show, this is probably my SBD tape (D5), it was at the Kings Head Inn in Norfolk Va, if you want more info please email me at productionTM@gmail.com,
Reviewer: solfood - - April 9, 2006
Subject: Venue Information
The date of this show is correct. The venue is The Boathhouse in Norfolk, VA. I still have a ticket from the show.
DOWNLOAD OPTIONS
Uploaded by
morst
on 12/4/2005
Views
19,606
Favorites
4
Reviews
3
PEOPLE ALSO FOUND
Camper Van Beethoven
by Camper Van Beethoven
9,936
0
1
( 1 reviews )
Source: Sony ECM-717 > Sharp MD-MT190MD
Camper Van Beethoven
by Camper Van Beethoven
2,674
0
1
( 1 reviews )
Source: Sony ECM-717 > Sharp Minidisc MD-MT190
Camper Van Beethoven
by Camper Van Beethoven
344
0
0
Source: audience > Sony WM-D6c > MCAS
Camper Van Beethoven
by Camper Van Beethoven
145
0
0
Source: soundboard > Sony D5 > TDK MA90 cassette master tape
Camper Van Beethoven
by Camper Van Beethoven
407
0
0
Camper Van Beethoven
by Camper Van Beethoven
1,831
1
0
Source: SBD
Camper Van Beethoven
by Camper Van Beethoven
690
2
0
Source: KM140's > MV100 > PCM-M10 (EMTEN) > WAV @2448
Camper Van Beethoven
by Camper Van Beethoven
331
1
0
Source: DPA 4061 mics upstairs > Sony PCM-D50 > WAV @48/24
Camper Van Beethoven
by Camper Van Beethoven
4,770
1
2
( 2 reviews )
Source: DSM6 -> PACLC -> M1
Camper Van Beethoven
by Camper Van Beethoven
931
2
1
( 1 reviews )
Source: AKG CB568D Hybrid Shotguns (48v) > Monster Studio Grade Cables > Zoom H4